السبت، 27 أبريل، 2013

THE LAST STAND 2013  




Description

.
Movies : Action : BluRay : English


Jack Reacher 2012 1080p x264 ACC - alrmothe



IMDB:

http://www.imdb.com/title/tt1549920
/>
Genre:Action | Crime | Thriller

Source:The Last Stand 2013 1080p Blu-ray Remux AVC DTS-HD MA 5.1 - KRaLiMaRKo

Language:English

File size:6.76 GiB

Overall bit rate:7326 kbps

Duration:2h 10mn

Encoded / Released By:alrmothe


Storyline:Sheriff Owens is a man who has resigned himself to a life of fighting what little crime takes place in sleepy border town Sommerton Junction after leaving his LAPD post following a bungled operation that left him wracked with failure and defeat after his partner was crippled. After a spectacular escape from an FBI prisoner convoy, the most notorious, wanted drug kingpin in the hemisphere is hurtling toward the border at 200 mph in a specially outfitted car with a hostage and a fierce army of gang members. He is headed, it turns out, straight for Summerton Junction, where the whole of U.S. law enforcement will have their last opportunity to make a stand and intercept him before he slips across the border forever. At first reluctant to become involved, and then counted out because of the perceived ineptitude of his small town force, Owens ultimately accepts responsibility for the face off.

cast

Arnold Schwarzenegger ... Ray Owens

Forest Whitaker ... Agent John Bannister

Titos Menchaca ... Mayor

Peter Stormare ... Burrell



Video Information

Format: MP4

Format : AVC

Format/Info : Advanced Video Codec

Format profile : High@L4.0

Format settings, CABAC : Yes

Format settings, ReFrames : 4 frames

Codec ID : V_MPEG4/ISO/AVC

Bit rate : 7212 kbps

Display aspect ratio : 16:9

Frame rate : 24 fps

Color space : YUV

Chroma subsampling : 4:2:0

Bit depth : 8 bits

Scan type : Progressive

Bits/(Pixel*Frame) : 0.195

Stream size: 5.26 GiB

Resolution:1920x804


Audio Information:

Format: ACC

Bit rate :448 Kbps

Channel(s) : 6 channels

Channel positions:Front: L C R, Side: L R, LFE

Sampling rate: 48.0 KHz

Bit depth: 24 bits

Compression mode: Lossy

Stream size: 343 GiB

Language:English
SCREENS :


الجمعة، 19 أبريل، 2013

Exclusive 

Jack.Reacher.(2012).720p 

IMDB RATING: 7.1


FORMAT..............: MP4
CODEC...............: X264
GENRE...............: Action
FILE SIZE...........: 1.10 GB
RESOLUTION..........: 1280*544
FRAME RATE..........: 23.976 fps
AUDIO...............: 92.0 Kbps AAC-LC (2CH)
SUBTITLES...........: English
LANGUAGE............: English
RUNTIME.............: 130 mins







الخميس، 18 أبريل، 2013

SKYFALL 2012 



RATING: 7.9FORMAT..............: MP4
CODEC...............: X264
GENRE...............: Action
FILE SIZE...........: 950.94 MB
RESOLUTION..........: 1280*536
FRAME RATE..........: 23.976 fps
AUDIO...............: 92.0 Kbps AAC-LC (2CH)
SUBTITLES...........: English
LANGUAGE............: English

SCREENS  


Chinese zodiac 2012 


Release Date: 20 December 2012 (China)
Genre: Action | Adventure
Stars : Jackie Chan, Qi Shu, Oliver Platt
Quality: BluRay 1080p
Encoder: SHQ@Ganool
Source: 1080p.BluRay.DTS.x264-PHD
Size: 1.6GB

screens 


ARGO 2012 
 FORMAT.......................: MP
CODEC........................: X264
GENRE........................: Drama
FILE SIZE....................: 751.26 MB
RESOLUTION...................: 1280*528
FRAME RATE...................: 23.976 fps
LANGUAGE.....................: English
SUBTITLES....................: English
RUNTIME......................: 120 mins
In 1979, the American embassy in Iran was invaded by Iranian revolutionaries and several Americans are taken hostage. However, six manage to escape to the official residence of the Canadian Ambassador and the CIA is eventually ordered to get them out of the country. With few options, exfiltration expert Tony Mendez devises a daring plan: to create a phony Canadian film project looking to shoot in Iran and smuggle the Americans out as its production crew. With the help of some trusted Hollywood contacts, Mendez creates the ruse and proceeds to Iran as its associate producer. However, time is running out with the Iranian security forces closing in on the truth while both his charges and the White House have grave doubts about the operation themselves. 

SCREENSHOT 


DJANGO UNCHAINED 2012 


IMDB RATING: 8.6


FORMAT..............: MP4
CODEC...............: X264
GENRE...............: Drama
FILE SIZE...........: 1.10 GB
RESOLUTION..........: 1280*536
FRAME RATE..........: 23.976 fps
AUDIO...............: 92.0 Kbps AAC-LC (2CH)
SUBTITLES...........: English
LANGUAGE............: English
RUNTIME.............: 2hr 45min

SCEENSHOT 


Stand Up Guys 2012 


Format: AVI
Size: 698 MiB
Video: XviD | 640 x 272 | 893 Kbps | 23.976 FPS | 2.35:1
Audio: English | 122 Kbps | 2 ch | MP3
Runtime: 1h 34mn
Subtitles: None
Source: MARKED - Thanks!
Encoder: scene4all

SCREENSHOT